• Рыбалка с алексеем фадеевым снасти

    Рыбалка с алексеем фадеевым снасти

    Весенний фидер на Волго-донском канале. Алексей Фадеев

    В середине апреля я посетил Волгоград с серией мастер- классов, посвящённых фидерной ловле, кроме теоретических лекций в магазинах и салонах компании «Артемида» не обошлось и без реального практикума на нескольких местных водоёмах. Особенный

    драйв от рыбалки я получил на Волго-донском канале, где, помимо отличнейших трофеев, мне удалось зацепить своим разумом парочку наиценнейших осознаний, связанных с фидерной ловлей в холодной воде. В этой небольшой статье я с удовольствием расскажу о своём персональном опыте фидерного общения с волго-донским чешуйчатым племенем.

    Холодный, прозрачный канал с классическим рельефом дна

    Желание половить фидерной снастью именно на Волго-донском канале будоражило мою душу уже лет так пять.

    Притчи и рассказы рыболовов доночников, побывавших на берегах этой водной артерии в конце апреля и в мае глаголили о грандиозных уловах карасей и подлещиков. Бывалые говорили что канал набит рыбой под самые завязки и, что наловить тут полный садок рыбы не составляет труда даже мальчишке. Я, конечно, понимал, что сказанное и действительное скорее всего сильно рознятся, но надежду сохранял до конца.

    Оказавшись наконец у заветной метки рыболовного счастья, пообщавшись с немногочисленными рыболовами на берегах канала и посмотрев их скудные уловы я понял, что мои сомнения были не зря.Не смотря на внешнее отсутствие рыбы в садках аборигенов и их жалобы на предмет поздней весны, в следствии которой рыболовные результаты такие ничтожные, так как вода не прогрелась, и в целом погода не установилась, я все равно настроил себя на бескомпромиссную борьбу, нацеленную на максимальный результат, ведь, в конце концов, я сталкивался десятки раз с ещё более сложными обстоятельствами и для меня ловля в такой обстановке совсем не в новинку.

    Во-первых, я для начала сделал краткий анализ и исследование самого водоёма с помощью специальной снасти и своего опытного рыболовного мозга, пробив его по глубинам, рельефу, прозрачности воды и её температуре, структуре и цвету дна, ну и видовому составу рыб, который в данное время проявляет какую никакую активность. В результате мозгового штурма и исследовательских действий я понял, что подводный рельеф канала можно назвать классическим судоходным. От берега идёт резкий ступенчатый свал, состоящий из трёх основательных платформенных ступеней разной ширины на каждой из таких ступенек своя особая структура дна. В основании канала широкий тридцати метровый фарватерный котлован, по которому, собственно, и ходят корабли и баржи. Первая ступенька шириной в три метра и глубиной в два с половиной метра находиться на расстоянии десяти метров от берега, у неё каменистая основа, у основания растёт много водорослей. Далее идёт свал под углом 20 градусов и протяжённостью два метра, выходящий на вторую ступень – площадку, аналогичную первой структуре дна. Ступенька имеет протяжённость три метра, глубина в данном месте чуть больше 5-ти метров, получается, что эта точка находиться в 18-ти метрах от береговой линии. Далее резкий, под 45 градусов, свал, образующий, пожалуй, самую суровую бровку на этом канале, протяжённость его не менее двух метров, он переходит в последнюю третью ступень. Глубина на последней площадке около семи метров, ширина ступени полтора метра, структура дна глинисто-илистая с редкими камушками, на данной плоскости много мусора и встречается пятнами ракушечник. Собственно, после последней ступени идёт практически вертикальный свал в фарватер. Самыми перспективными точками для ловли фидерной снастью я посчитал первую и последнюю ступеньки, просто на переднем крае по всем законам природы, однозначно, должна была тусоваться мелочёвка, тут просто вода прогревается быстрее, а на дальнем кордоне возможны поклёвки более менее крупных рыбёшек, которые из-за кристальной прозрачности воды бояться выходить в прибрежную зону. Тонкий момент — температура воды в канале на момент моего пребывания была всего восемь градусов, стихия имела очень прозрачный буквально водопроводный вид.

    По свидетельствам удивших в данный момент рыболовов первую активность проявляли разнокалиберные бычки,мелкая плотвичка,некрупные подлещики, малюсенькие окуньки и редкие караси разного размера, включая трофейного гибридного карася.

    Канальный фидерный микс.

    Взвесив все за и против я решил пойти по схеме использования высококачественной средне- и мелко-фракционной зерновой смеси средней липкости и умеренным количеством плавающих частиц с цитрусово-пряной ароматикой. По физическим свойствам и механике моя прикормка должна была удерживаться в точке лова под влиянием меняющегося по силе и направлениям течения и сохранять хотя бы частичную стойкость после прохода по каналу огромных барж, которые винтами настолько сильно колошматят по водному потоку, что со дна поднимаются даже бревна. Кроме этого, принял решение попробовать поиграть с цветовой гаммой прикормки, по классике должны были сработать черные, ярко красные и зелёные составы. Я же сделал прикормку темно-бордового мотылёвого цвета. В моем миксе сохранилась чёрная основа из низкокалорийной прикормки для ловли леща и плотвы в холодной воде«SensasGrosGardons Noire», укрепляющую и связывающую функцию взяла на себя прикормка для ловли глубоководного леща на реках с сильным течением«Sensas Super Fond», и в качестве красящего элемента я добавил в свой фидерный корм специальную ярко красную прикормку для ловли плотвы и подлещика на каналах«SensasGardonsRouge». В таком особом черно-жёлто-красном исполнении моя прикормка обрела тёмно-бордовый вид с вкраплением жёлтых частичек, она реально стала похожа по цвету на гору мотыля или мелко-рубленного красного червя, а жёлтые дроблёные кукурузинки в ней и кусочки бисквита делали её очень съедобно привлекательной и даже немного пикантной. Да, и последний нюанс — для весенней пятичасовой сессии на волго-донском канале мне было достаточно всего двух килограмм сухой смеси, последнее время я стал проповедовать принцип умеренного кормления с очень грамотной и точной подачей в идеальную точку лова под водой.

    Сверх чуткая оснастка

    Я очень хорошо знаю, что на любом судоходном канале, главное чтобы это был сезон открытой воды,интересующая меня мирная рыба кормится во всех слоях воды. Поэтому для такой фидерной рыбалки в моем арсенале имеется особая заготовка в виде специализированной оснастки, заточенной исключительно на то, чтобы ловить рыбу как строго со дна, так и на падении приманки в различных уровнях водного потока.Эта оснастка называется «helicopter and two knots». В самом названии этого необычного фидерного монтажа читается его сходство с классической карповой оснасткой «helicopter rig»,применяемой для ловли на илу и точной подачи бойла на волосе на сверхдальние дистанции. В отличие от карповой вертолётной оснастки, которая монтируется на специальном «ледкоре»и имеет серьёзную силовую основу, «helicopter and two knots» формируется непосредственно на основной леске,а функцию блокирующих буферных бусин перенимают классические узлы «восьмёрки»,которые вяжутся в количестве двух штук выше рабочей кормушки на расстоянии в сантиметре друг от друга. В спортивном фидере «helicopter and two knots» считают одной из самых эффективных оснасток,прямое безотводное соединение позволяет поводку после падения кормушки на дно выстилаться строго по прямой линии, гарантируя стопроцентное попадание насадки в ориол прикормочного пятна, такая подача обеспечивает быстрое нахождение рыбой наживки, следовательно, и поклевки происходят быстрее и чаще. Чувствительность в оснаcтске «helicopter and two knots» тоже очень отменная, даже, можно сказать,повышенная. Этому способствует, опять же, прямое без плечевое соединение поводка с оснасткой, отсутствие отвода реально ускоряет натяжение лески после того, как рыба взяла приманку в рот в отличие от той же оснастки «Петля Гарднера», у которой имеется плечо. Отмечу, хоть отсутствие плеча и усиливает чуткость оснастки, но при этом делает её очень восприимчивой для рыб, то есть чешуйчатые на этой оснастке чувствуют натяжение от вершинки до кормушки, поэтому часто бросают приманку не успев её заглотить, бороться с этим возможно только двумя способами: увеличением размера поводка и предельной внимательностью рыболова. Если я уж решился ловить с ней, то мне придётся не выпускать удилища из рук и не отрывать ни на секунду глаз от своей фидерной вершинки, реагируя быстрой подсечкой на любое дрожание моего квивертипа. Для ловли на волго-донском канале расстояние от кормушки до первого узла равнялось 13-ти см, такая длина позволяет моему длинному полутораметровому поводку из лески 0.10 мм медленнее погружаться на дно,можно даже сказать зависать в толще воды,позволяя рыбе атаковать насадку в лёт.

    Кормушки для точной и умеренной подачи

    Размышляя о выборе кормушек я, конечно же, в первую очередь думал о точной подаче корма на значительные канальные глубины, во-вторых мне нужно было обеспечить скоростную и очень локальную подачу прикормки без кормовых потерь при погружении кормушки. В-третьих, я реально понимал что из-за слабой активности рыбы крайне важно не перекармливать рыбу, поэтому за один заброс моя кормушка должна была подносить рыбам не малую и не большую порцию прикормки. Ну и в-четвертых, моя кормушка должна была уверенно лежать на дне под влиянием меняющегося по силе и направлениям течении на волго-донском канале. Для таких целей в моем арсенале имеются металлические кормушки клетки «Browning specialist»в размере «small» веса от 20 до 80 грамм. Для канальной рыбалки в самый раз мне подошли кормушки в весе 50-ть и 80-ть грамм в зависимости от силы течения.

    Клеточки «Browning specialist small»,отменно летят, быстро погружаются, пробивают любой ветер, при наличие такового, подают немного корма, очень хорошо держат дно. С ними я покорял глубины канала имени Москвы в Дубне, и в данном месте они мне сильно пригодились.

    Источник: khopyor.moy.su

    Английская донка с Алексеем Фадеевым

    «Приструнить его!», «Иди сюда, зверюга!», — это не кадры боевика. Это Алексей Фадеев ловит карпа на коммерческом водоеме Подмосковья на английскую донку. Во время просмотра этого фильма есть серьезная опасность получить изрядную дозу драйва, а также попытаться повторить рыбацкую историю Алексея.

    Хорошая рыбалка начинается с прикормки: смотрим «убойный» рецепт от Алексея. Кроме того, от известного эксперта мы узнаем: какие снасти он решил применить для этой рыбалки, на выборе какой оснастки для английской донки остановился, почему отдал предпочтение кормушке именно такой формы, и какую насадку карп предпочел сегодня.

    Динамичная картинка, эффектный звукоряд, потрясающий воображение улов (да что там, неподъемный улов!) — за всем этим не пропустите три ценных совета для тех, кто в ближайшее время собирается с фидером на коммерческий водоем.

    На самом деле, в этом фильме советов по ловле английской донкой прозвучало гораздо больше. А наибольшую ценность представляет рекомендация эксперта почаще практиковаться с фидером на разных водоемах и пытаться ловить разную рыбу. А Алексей Фадеев будет нам в этом помогать.

    Интересно, под силу ли кому-нибудь повторить успех Алексея на платнике?

    Ловля на английскую донку (фидер) с Алексеем Фадеевым

    Серию можно выбрать, нажав символ меню в левом верхнем углу.

    Источник: club-fish.ru

    Рыбалка в Донецкой области — ловля на фидер карпа с Алексеем Фадеевым

    На рыбалку в Донецкую область Алексей Фадеев приехал с целью ловли карпа на фидер. Водоем Донецкой области для рыбалки, куда пригласили известного рыболова друзья с Украины, находится в восемнадцати километрах от города Донецк. Это поселок Андреевка — культурное хозяйство, рыбацкая деревня.

    Довольно известный водоем большой площади, более 20 гектаров с разнообразным видовым составом рыбы. Здесь есть плотва, красноперка, щука, карась, окунь, белый амур и разнокалиберный карп, как по массе так и по породе. То есть достаточно богатая фауна.

    Цель Алексея — целенаправленная ловля на фидер карпа.

    Прикормка для карпа

    Любая карповая рыбалка начинается с процесса приготовления особой прикормочной смеси. Для того чтобы отсечь мелкую рыбу, он будет использовать только крупную фракцию в виде пелетса и консервированной кукурузы.

    На этой рыбалке, рыболов будет применять два вида обогащенного зернового пелетса со вкусом клубники и скопикса. В качестве особого стимулятора клева использует продукт от компании Sensas — IM5 Betaine Green. Он создан специально, чтобы успешно ловить карпа, леща и линя на заиленных водоемах.

    Оснастка для ловли карпа на заиленных водоемах

    На рыбалке в Донецкой области, Алексей планирует использовать на фидере весьма особенную оснастку для ловли карпа.

    Все дело в том, что донный грунт водоема в Андреевке, чрезвычайно заилен и замусорен растительностью. Соответственно наличие таких негативных факторов стимулирует его применять весьма особенный, нетрадиционный фидерный монтаж.

    Принцип работы такой оснастки: длина отвода, который делается из флюорокарбоновой лески, должна быть больше в два раза глубины ила в точке лова.

    Детали оснастки Running feeder:

    • двойной вертлюжок;
    • буферная бусина;
    • еще один двойной вертлюг;
    • и на основной леске блокирующий поплавочный стопор.

    Далее формируется, из флюорокарбона 0.26 мм диаметром, скрутка, снова ставится вертлюжок с застежкой и собственно сама кормушка.

    В данном месте водоема русло от берега находится на расстоянии двадцати шести метров, поэтому нужно использовать фидерную кормушку более двадцати граммов. Алексей использует не имеющую отверстий кормушку «Стакан» от компании Vegas весом в тридцать граммов. Такими кормушками очень хорошо вытряхивается прикормка над илом. Иначе говоря, можно не ожидать покуда вершина удилища отыграет и когда кормушка упадет на дно, а именно вытряхивать ее над дном. Тогда фактор завязания фидерной кормушки в ил будет минимальным.

    Такие фидерные оснастки Running feeder, очень эффективны не только в условиях ловли, где есть ил, но и там где имеется много водорослей на дне. Английской донкой можно запросто ловить рыбу в водорослях, тогда отвод может достигать более сорока сантиметров.

    Источник: fishingkalina.ru

    Английская донка c Алексеем Фадеевым (9 серий) [2012, документальный, рыбалка, WEB-Rip]

    00:13:00
    Год выпуска: 2012

    Описание: Передача «Английская донка» отличается изобилием прекрасных пейзажей, ориентирована на ценителей английской донной ловли. Алексей Фадеев мастер данного вида ловли, он является автором и ведущим программы. В каждом выпуске он делится советами, рекомендациями, историями и примерами для улучшения ваших навыков рыбной ловли. Ценные уроки проводятся на великолепных природных пейзажах, видео высокого качества — все это создает атмосферу присутствия на рыбалке вместе с ведущим.

    Видео: 720×400 (1.800),25.000 fps, XviD MPEG-4, 2004 Кбит/сек, 0.278 bit/pixel
    Аудио: 44,1 КГц, MPEG Layer 3, 2 канала, 128 Кбит/сек
    (Тех. данные серий идентичны)

    Общее
    Полное имя : D:14 янвАнглийская донка с Алексеем ФадеевымДонецкая область. Донецк. Карповая ловля. Часть 1.avi
    Формат : AVI
    Формат/Информация : Audio Video Interleave
    Размер файла : 195 Мбайт
    Продолжительность : 12 м.
    Общий поток : 2142 Кбит/сек
    Программа кодирования : VirtualDubMod 1.5.10.3 | www.virtualdub-fr.org || (build 2550/release)
    Библиотека кодирования : VirtualDubMod build 2550/release

    Видео
    Идентификатор : 0
    Формат : MPEG-4 Visual
    Профиль формата : Advanced Simple@L5
    Параметр BVOP формата : 1
    Параметр QPel формата : Нет
    Параметр GMC формата : Без точки перехода
    Параметр матрицы формата : Default (MPEG)
    Идентификатор кодека : XVID
    Идентификатор кодека/Подсказка : XviD
    Продолжительность : 12 м.
    Битрейт : 2004 Кбит/сек
    Ширина : 720 пикселей
    Высота : 400 пикселей
    Соотношение сторон : 16:9
    Частота кадров : 25,000 кадров/сек
    Цветовое пространство : YUV
    Субдискретизация насыщенности : 4:2:0
    Битовая глубина : 8 бит
    Тип развёртки : Прогрессивная
    Метод сжатия : С потерями
    Бит/(Пиксели*Кадры) : 0.278
    Размер потока : 183 Мбайт (94%)
    Библиотека кодирования : XviD 1.2.1 (UTC 2008-12-04)

    Аудио
    Идентификатор : 1
    Формат : MPEG Audio
    Версия формата : Version 1
    Профиль формата : Layer 3
    Идентификатор кодека : 55
    Идентификатор кодека/Подсказка : MP3
    Продолжительность : 12 м.
    Вид битрейта : Постоянный
    Битрейт : 128 Кбит/сек
    Каналы : 2 канала
    Частота : 44,1 КГц
    Метод сжатия : С потерями
    Размер потока : 11,7 Мбайт (6%)
    Выравнивание : Разделение по промежуткам
    Продолжительность промежутка : 40 мс. (1,00 видеокадр)
    Время предзагрузки промежутка : 500 мс.
    Библиотека кодирования : LAME3.99r
    Настройки программы : -m s -V 4 -q 2 -lowpass 17 -b 128

    Источник: myklad.org

    Ловля карася на фидер весной на деревенском пруду «Английская донка» видео

    Ловля карася весной на фидер оснасткой «ранинг фидер» на деревенском пруду «Английская донка» видео с Алексеем Фадеевым смотреть онлайн в хорошем качестве вы можете на нашем сайте. Приятного просмотра!

    Фидерная оснастка «петля Гарднера» для фидера Как вязать «Английская донка» видео

    Фидерная оснастка «петля Гарднера» для фидера — Как вязать «Английская донка» видео с Алексеем Фадеевым смотреть онлайн в хорошем качестве вы можете на нашем сайте. Приятного просмотра!

    Ловля трофейного дикого карпа летом на Нижней Волге «Английская донка» видео

    Ловля трофейного дикого карпа летом в июле на Нижней Волге «Английская донка» видео с Алексеем Фадеевым смотреть онлайн в хорошем качестве вы можете на нашем сайте. Приятного просмотра!

    Правильные фидерные поводки и крючки для ловли на фидер «Английская донка» видео

    Правильные фидерные поводки и крючки для ловли на фидер «Английская донка» видео с Алексеем Фадеевым смотреть онлайн в хорошем качестве вы можете на нашем сайте. Приятного просмотра!

    Карповая оснастка «безопасная клипса» для ловли сазана «Английская донка» видео

    Карповая оснастка «безопасная клипса» для ловли дикого сазана на нижней Волге «Английская донка» видео с Алексеем Фадеевым смотреть онлайн в хорошем качестве вы можете на нашем сайте. Приятного просмотра!

    Фидерная оснастка «вертолёт и два узла» для фидера «Английская донка» видео

    Фидерная оснастка «вертолёт и два узла» для фидера «Английская донка» видео с Алексеем Фадеевым смотреть онлайн в хорошем качестве вы можете на нашем сайте. Приятного просмотра!

    Ловля белой рыбы на фидер весной на малых реках «Английская донка» видео

    Ловля белой рыбы на фидер весной в конце апреля и в начале мая на малых реках юга России «Английская донка» видео с Алексеем Фадеевым смотреть онлайн в хорошем качестве вы можете на нашем сайте. Приятного просмотра!

    Ловля карпа ранней весной на фидер на платниках «Английская донка» видео

    Ловля карпа ранней весной на фидер на платниках «Английская донка» видео с Алексеем Фадеевым смотреть онлайн в хорошем качестве вы можете на нашем сайте. Приятного просмотра!

    Как вязать оснастку патерностер для фидера «Английская донка» видео

    Как вязать оснастку патерностер для фидера «Английская донка» видео с Алексеем Фадеевым смотреть онлайн в хорошем качестве вы можете на нашем сайте. Приятного просмотра!

    Осенний карпфишинг с Арсением Дёминым «Английская донка» видео

    Осенний карпфишинг с Арсением Дёминым «Английская донка» видео с Алексеем Фадеевым смотреть онлайн в хорошем качестве вы можете на нашем сайте. Приятного просмотра!

    Источник: www.prospinning.ru

    Рыбалка с алексеем фадеевым снасти

    Начну по порядку, с прикормочных приёмов. Секрет первый: так как чаще всего мне приходиться ловить дикого карася на лесных озёрах и прудах, где донный грунт имеет заиленную основу разной плотности я понял, что лучшей цветовой гаммой по фидерной прикормке будет та, что полностью соответствует цвету ила на дне, то есть землисто-зеленоватой или даже чёрной. Дикий карась очень хорошо видит под водой, о его зоркости сложено не мало рыболовных баек и легенд, особенно крупные особи в солидном возрасте очень негативно и, главное, с опаской реагирует на любую неестественность в цвете. Контрасты им совершенно не по вкусу, даже если в корме горы вкусного по виду и запаху такие рыбины ни за что не рискнут вкусить с такого странного для них по цвету кормового стола. Поэтому, оттенок корма должен быть максимально натуральным и это правило распространяется совершенно на любой тип дна, на котором я пытаюсь ловить карасей. Для того, чтобы довести свой фидерный корм до идеальной цветовой гаммы я использую специальные порошковые красители, которые создаются многими производителями рыболовных прикормочных смесей. Лидерами моего красящего арсенала уже много лет являются красители от «Sensas» и «Browning», обычно 5 мг такого красителя способны покрасить до 3 кг сухой смеси.

    Теперь мой секрет номер два, также связанный с фидерной прикормкой. Одним из очень эффективных спортивных кормовых приёмов, от которого сходят с ума многие виды белых рыб, включая карасей — это использование в качестве добавки в корм специальных флуоресцентных сухарей ярко красного и жгучего жёлтого цветов. Производят их несколько европейских компаний, специализирующихся в области производства профессиональных прикормок для рыбной ловли. Чем же так хороши эти светящиеся сухарики? Все дело в том, что на фоне тёмного дна, в условиях ловли на глубине или в мутной воде они реально мерцают и переливаются даже от слабых ультрафиолетовых лучей, создавая тем самым эффект активного, можно сказать живого, ковра на дне. Я не рыба, и мне не понять почему караси, карпы и лещи так любят эти светящиеся частицы, но факт остаётся фактом, рыба не только приплывает на точку, где есть эта секретная добавка, поглядеть на игру мерцающих точек, но и с удовольствием поесть их. Насытиться чешуйчатые этими цветными частичками никогда не смогут, так как у сухариков нулевая питательная ценность, соответственно, объем поглощённого не уменьшит их голод, возникающие в связи с этим паника и пищевой ажиотаж становятся причиной потери страха. Голодные рыбки, в буквально смысле, начинают глотать все, что только похоже на еду в том месте, где рассыпаны сухарики, естественно, на этом фоне в их рты с большим аппетитом пролетает любая насадка, посаженная предварительно на крючок. Вот именно поэтому я щедро и сыплю флуоресцентные сухари в прикормку, обычно на три килограмма сухой смеси у меня уходит по горсти жёлтых и красных сухариков. Попробуйте, это действительно работает.

    Сухофрукты, клубника, анис и ваниль

    Мой третий секрет был найден в той же кулинарной рыболовной теме, которую я, собственно, и считаю главной в ловле карасиков. Вообще, переловив не одну сотню карасиков на фидерную снасть, я понял, что самыми лучшими ароматами и вкусами для прикормок, срабатывающими практически всесезонно по этому виду рыб, были и будут сухофрукты, клубника, анис и ваниль. Причём, их можно использовать по отдельности друг от друга, а также и миксовать между собой. Сейчас на современном рыболовном рынке есть широкий выбор разных ароматизаторов и аттрактивных добавок, имеющих именно такую вкусовую и ароматическую составляющую, соответственно, поиграться и поэкспериментировать есть с чем. В моей практике очень хорошо зарекомендовали себя сухие и жидкие добавки от «Sensas» и «VDE», поэтому советую обратить именно на них внимание.

    Зерновая конопля и кастеры

    Мой четвёртый приём завершает подготовку моей прикормочно-насадочной программы. Я считаю его очень важным и актуальным в фидерном применении именно по трофейным карасям, ведь его сила воздействия уже помогла мне выхватывать из водной пучины по-настоящему огромных карасей в весе от килограмма и более. Я долгое время искал безотказные кормовые компоненты, увеличивающие фактор частоты качественных поклёвок, мне хотелось прийти к тому, чтобы научиться фильтровать крупные карасёвые особи от мелких, предпочтительнее в сторону крупных. Перепробовав массу классических насадочных вариантов, которые всем известны, я нашёл две очень необычные позиции, которые практически не используются нашими рыболовами. Этими позициями стали крупная консервированная конопля, которая используется в классическом карпфишинге и кастеры – окуклившиеся личинки опарыша. Из опыта скажу, что тот же дикий карась всегда проявляет чрезвычайную избирательность в насадках, даже если он отреагировал на предложенную прикормку и крутиться в точке, то по каким-то необъяснимым причинам не готов есть то, что мы насадили на крючок или клюёт избирательно. Второй вариант — он активно клюёт, но в очень мелком, ладошечном, размере. Прочувствовав на своей шкуре эти оба варианта я продолжал эксперименты с насадками, выискивая новые комбинации для соблазнения крупной осторожной рыбы и, как оказалось позже, применение конопли и кастеров сотворили настоящий фурор и переворот в моих карасёвых подвигах с фидером.

    Просто я не поленился попробовать ловить на чистую коноплю, предлагал её карасикам в разных насадочных бутербродах, в тандемах с традиционными насадками в виде подсаженной к ней личинки мотыля или кусочка червя. Также, я позаботился и о том, чтобы на моих крючках оказался кастер как в чистом виде, так и в бутербродах с другими известными насадками. Такие пробы и эксперименты изменили и мои итоговые результаты по карасю, просто мне стала чаще попадаться крупная рыба карасёвого племени. Я не знаю как это объяснить, но это работает, возможно, из-за того, что консервированная пророщенная конопля как-то особенно пахнет, а кастеры медленно погружаются или даже плавают, что, само по себе, может как-то радовать рыбу. Попробуйте мой секрет может и у вас сработать.

    Кормлю над дном и ловлю на грузики

    Последний, пятый, секрет, с которым я с лёгкостью распрощаюсь и сделаю его достоянием масс, связан с тактическим подходом в карасёвой рыбалке. В исполнении его есть два очень важных последовательных шага, которые нужно выполнять очень внимательно. Итак, практически все доночники-карасятники чаще всего ловят рыбу на илистом типе дна, по классике карасики любят покопаться в илу в поисках пищи, вот поэтому тут его и ловят. Собственно, так делаю и я, но только делаю это особенно. Для того, чтобы в максимальной степени увеличить шансы на привлечение и поимку рыбы я вначале применяю особую технику приваживания карасей.

    Суть моей техники — вытряхивать корм из кормушки непосредственно над дном, до её падения. В таком виде практически вся прикормка выкладывается поверх ила, а не в нем, соответственно, обнаружить прикормку рыбе будет намного проще и копаться в илу ей не нужно будет. Как я это делаю: сначала определяю на какой счёт кормушка вместе с кормом падает на дно в заранее найденной точке лова, например, на счёт пять. Далее, после следующего заброса оснастки, на счёт «четыре», в процессе погружения кормушки, в её подводном полете я делаю резкий одиночный рывок бланком вверх, после которого корм выходит строго над дном, но рывок должен быть только одиночным, а не серийным, чтобы не размазывать корм по дну. Для обеспечения полноценного вылета корма из кормушки моя прикормка имеет среднеувлажненную структуру, и я её не сильно зажимаю в кормушке.

    Обычно, процедура прикармливания точки для карасей состоит из 15 забросов, из которых три на дне, а 12 — над дном. Далее, я отстёгиваю от фидерной оснастки кормушку и ставлю на её место грузик малого веса, например 7 или 14 грамм, прикрепляю к оснастке метровый поводок, заряжаю крючок насадкой и отправляю в точку лова оснастку с грузиком. Преимущество грузика перед кормушкой заключается в том, что при падении и погружении он практически не шумит, не проваливается в ил после падения и на перезабросе легче выходит из илистого дна, практически не взмучивая его. Мои любимые груза делает английская компания «GURU», с ними я брал очень хитрых ленивых карасиков, которые любят кушать с поверхности ила. Ловля на легкий груз дает мне возможность ловить аккуратных рыбин, которые очень восприимчивы к лишним шумам и движению под водой, да и, кстати, в зависимости от клева я периодически меняю грузик на кормушку и делаю серию из трёх, четырёх забросов, вытряхивая корм, опять же, над дном. Приблизительно один раз в час по одной серии, то есть практически вся фидерная рыбалка ведётся на грузик.

    Источник: www.sportfishing.ua

    Видео про фидер за август 2017

    Прошел и последний месяц летней рыбалки. Теплые ночи и нежаркие дни давали массу возможностей половить рыбу. Сегодня вспомним прошедшие дни и ночи совместно с авторами видео.

    От Прибалтики до Приморья рыболовы каждый день штурмовали водоемы, подбирая прикормки и снасти, оттачивая навыки владения удилищами.
    Августовская погода в ленинградской области не радовала. Частые дожди и похолодание намекали, что лето заканчивается. Но даже неприятная погода не помешала настоящим любителям фидера выехать на рыбалку и сделать видеоотчеты.

    Летний карп на пикер

    Андрей Думчев продолжает делиться своим опытом ловли карпа. На этот раз он ловит на коммерческом водоеме около Москвы.

    Пикер – это фидер длиной до 3.3м. Используется он для ловли на небольших дистанциях. Как правило, пикера обладают небольшим тестом (до 60-ти гр.) и хорошей чувствительностью. Так что ловля карпа доставляет незабываемые впечатления при использовании такой изящной снасти.

    Как цвет прикормки влияет на клев?

    На нашем сайте мы уже не раз обсуждали этот вопрос. Например, в статье «Какой цвет прикормки лучше?» обсуждались наиболее популярные цвета: черный, красный, коричневый и желтый.

    В статье как зачернить прикормку или придать ей другой цвет мы перечислили средства и способы покраски прикормки.

    Но какой бы не была теория, практика нередко противоречит ей. Сегодня предлагаем вместе с командой Рыбий Яр снова ответить на вопрос: влияет ли цвет прикормки на клёв и насколько?

    Семинары по флэт фидеру от Алексея Фадеева

    В начале года Алексей Фадеев провел в Казани семинар о ловле на флэт. На нем были рассмотрены теоретические и практические вопросы.

    В первой части видео семинара Алексей рассказывает общую теорию рыбалки на флэт. История, принципы ловли, отличие от классического фидера и т.д. Во второй части идет более практическая беседа, обсуждается тактика, техника ловли даются полезные советы.

    Лучшее видео за июль 2017

    В июле жарко, а расставаться с ним жалко, в июле душно, а расставаться с ним скушно.

    Для любителей рыбалки этот месяц один из лучших. И хотя погода бывает действительно очень жаркой, но зато рыбалка бывает самой лучшей. Теплые ночи позволяют по нескольку дней находится на водоеме, совмещая ловлю и отдых, заряжаясь энергией и впечатлениями на весь год.

    Видеороликов про фидерную ловлю и другие виды рыбалки снято в июле немало. Сегодня публикуем лишь малую часть из того что опубликовано в июле.

    Источник: feederist.ru

    Ловля дикого карпа (Алексей Фадеев) [2013, документальный, рыбалка, WEBRip-AVC]

    00:28:48
    Год выпуска: 2013

    Видео: 720×408 (16:9), 25,000 fps, AVC (x264), High@L3.1

    1000 Кbps avg, 0.136 bit/pixel
    Аудио: 44,1 kHz, AC3 Dolby Digital, 2 ch (Front: L R),

    Общее
    Уникальный идентификатор : 220908153355712921400815637812795730955 (0xA6315CDD3AF0CA59B0FAF36E2AF0EC0B)
    Полное имя : D:14 янвЛовля дикого карпа.mkv
    Формат : Matroska
    Версия формата : Version 2
    Размер файла : 232 Мбайт
    Продолжительность : 28 м.
    Общий поток : 1126 Кбит/сек
    Дата кодирования : UTC 2014-04-03 18:20:22
    Программа кодирования : mkvmerge v6.1.0 (‘Old Devil’) built on Mar 4 2013 09:10:42
    Библиотека кодирования : libebml v1.3.0 + libmatroska v1.4.0

    Видео
    Идентификатор : 1
    Формат : AVC
    Формат/Информация : Advanced Video Codec
    Профиль формата : High@L3.1
    Параметр CABAC формата : Да
    Параметр ReFrames формата : 8 кадров
    Идентификатор кодека : V_MPEG4/ISO/AVC
    Продолжительность : 28 м.
    Битрейт : 1000 Кбит/сек
    Ширина : 720 пикселей
    Высота : 408 пикселей
    Соотношение сторон : 16:9
    Соотношение сторон в оригинале : 16:9
    Режим частоты кадров : Постоянный
    Частота кадров : 25,000 кадров/сек
    Цветовое пространство : YUV
    Субдискретизация насыщенности : 4:2:0
    Битовая глубина : 8 бит
    Тип развёртки : Прогрессивная
    Бит/(Пиксели*Кадры) : 0.136
    Размер потока : 201 Мбайт (87%)
    Библиотека кодирования : x264 core 130 r2273 b3065e6
    Настройки программы : cabac=1 / ref=8 / deblock=1:-1:-1 / analyse=0x3:0x133 / me=umh / subme=7 / psy=1 / psy_rd=1.00:0.10 / mixed_ref=1 / me_range=16 / chroma_me=1 / trellis=2 / 8x8dct=1 / cqm=0 / deadzone=21,11 / fast_pskip=0 / chroma_qp_offset=-3 / threads=6 / lookahead_threads=1 / sliced_threads=0 / nr=0 / decimate=1 / interlaced=0 / bluray_compat=0 / constrained_intra=0 / bframes=3 / b_pyramid=2 / b_adapt=2 / b_bias=0 / direct=1 / weightb=1 / open_gop=0 / weightp=2 / keyint=250 / keyint_min=25 / scenecut=40 / intra_refresh=0 / rc_lookahead=50 / rc=abr / mbtree=1 / bitrate=1000 / ratetol=1.0 / qcomp=0.60 / qpmin=0 / qpmax=69 / qpstep=4 / ip_ratio=1.40 / aq=1:1.00
    Default : Да
    Forced : Нет

    Аудио
    Идентификатор : 2
    Формат : AC-3
    Формат/Информация : Audio Coding 3
    Расширение режима : CM (complete main)
    Параметр Endianness формата : Big
    Идентификатор кодека : A_AC3
    Продолжительность : 28 м.
    Вид битрейта : Постоянный
    Битрейт : 128 Кбит/сек
    Каналы : 2 канала
    Расположение каналов : Front: L R
    Частота : 44,1 КГц
    Битовая глубина : 16 бит
    Метод сжатия : С потерями
    Размер потока : 26,4 Мбайт (11%)
    Default : Да
    Forced : Нет

    Источник: myklad.org

    Рубрики: Рыбалка осенью